РЕГИСТРАЦИЯ RSS Новинки ТОП 10 Сообщения за день
Fresh Records
Вернуться   Fresh Records >Разделы форума > Музыкальные форумы и разделы > Компиляции > Альбомы
  • Joe Stone & Cr3on - Is It Really Love (Extended Mix) [2018]
  • Avidance feat. Samir -  Without You (DJ Oskar & DJ Karimov Remix)[2018]
  • Andrey Exx - Missing You (Original Mix) [2018]
  • Ronald Christoph - Take Off, Baby! (Pruchkovsky Remix) [2018]
  • G-Eazy & Halsey - Him & I (Hardphol Remix) [2018]
  • Shanguy - La Louze (Denis Rublev & Kolya Funk Remix) [2018]
  • Grivina - Хочу (Rakurs & Ramirez Remix) [2018]
  • J. Balvin, Jeon, Anitta - Machika (Vadim Adamov & Hardphol Remix) [2018]
  • Betta Lemme - Bambola (Lavrushkin Remix) [2018]
  • Buzzy - In The Night (Original Mix) [2018]
  • Макс Корж - Оптимист (Gonsu Extended Remix) [2018]
  • Mariana Bo - Antonio (Extended Mix) [2018]
  • Freischwimmer feat. Little Chaos – All That She Wants (Slava Inside & Myers Remix) [2018]
  • Deekey - Solo Beat (Original Mix) [2018]
  • Takahiro Yoshihira x Seira - Ploxion; Exubessan X Shr - Killdm; Fil Abbax & Dav5 - Infinity; Glowjack - Aftermath; Kastaro & Vinch - Spirit; R3zed - Brave; Sharp Man & Mr.Magicall - I Wanna Go Home (Original Mix's) [2018]
  • Terminator - I’ll Be Back (Torr Remix) [2018]
  • L.B. One feat. Laenz - Tired Bones (Dj Jurbas & Dj Trops Remix) [2018]
  • Gazirovka - Black (Dmitriy 5Star & Volonsky Remix) [2018]
  • Janieck - Does It Matter (Denis First & Reznikov Remix) [2018]
  • Tilary - Tell Me Why (Extended Mix) [2018]
  • Deep Purple - Smoke On The Water (Xm & Alexandr Holsten Remix) [2018]
  • Selena Gomez x Marshmello - Wolves (Ramirez & O'Neill Remix) [2018]
  • Loreen - Euphoria (Olmega & Anna Sahara Remix) [2018]
  • Katy Perry  ft. Nicki Minaj - Swish Swish (Fresh Night Remix) [2018]
  • Элджей - Топ топ (Snebastar Remix) [2018]
  • Aгонь - Провоцируй (Skill & Tony M Remix) [2018]
  • Lexter - Freedom To Love (John Reyton Remix) [2018]
  • Rick Astley - Never Gonna Give You Up (Upfinger & Kanat Mukat Remix)  [2018]
  • Johan K - Funkybeam (Original Mix) [2018]
  • Капитан Кенгуру - Я попал, но я играю рок (Xm; G-Love & Igor Frank; Mike C Green & Tiger Jz; Torr; Zan & Skill Remixes) [2018]
  • Maruv & Boosin - Drunk Groove (Naypse Remix) [2018]
  • A-Mase - The Funk King; In The Club (Original Mix's) [2018]
  • Matrang - Медуза (Alex Shik & Dobrynin Remix) [2018]
  • Little Big - Lolly Bomb (Dmitriy Exception Remix) [2018]
  • Odri - Бедствие (Alex Clod Official Remix) [2018]
  • Сartoon People & Friends - Vol.3 [2018]
  • Eiffel 65 - Blue (Arefiev & Olmega Remix) [2018]
  • Скрябін - Мам (Dj Jurbas & Dj Trops Remix) [2018]
  • A-Mase & Sharliz - My Love (Original Mix; Deep Radio Mix) [2018]
  • Felix Jaehn feat. Marc E. Bassy, Gucci Mane - Cool (Eugene Star Remix) [2018]
  • Bounce Inc. - Nobody Likes (Extended Mix) [2018]
Справка Доска почета
Создать новую тему  Ответ
 
Опции темы
Старый 23.03.2011, 22:34   #1
CEO & Developer
 Аватар для DJ_Andruha
Качество релиза 320 kbps [Electro/Progressive/Pop] Arthur Project - Tel-Aviv gRUves 2 [Presentation][2011]

Презентация нового сборника от Arthur Project
Отличная компиляция любимой музыки.



Arthur Project - Tel-Aviv gRUves 2
Файлы с этого сообщения | Посмотреть все mp3 этого автора
Тип файла: cue Arthur Project - Tel-Aviv gRUves 2 (no ids).cue
(3.5 Кб, Скачиваний: 122 (0/52/70), Слушали: 119 )
__________________
Следите за нашими новостями в социальных сетях:
DJ_Andruha вне форума  
Старый 24.03.2011, 00:30   #2
Звезда эстрады
Аватар для boag69
По умолчанию Ответ: [Electro/Progressive/Pop] Arthur Project - Tel-Aviv gRUves 2 [Presentation][2011]

Гм наверно глюк какой-то но прослушки нет, да и трек лист интересно бы увидеть


ЗЫ - уже увидел - скачал cue файл
boag69 вне форума  
Старый 24.03.2011, 02:57   #3
Звезда эстрады
 Аватар для pashu25
По умолчанию Ответ: [Electro/Progressive/Pop] Arthur Project - Tel-Aviv gRUves 2 [Presentation][2011]

И как тут что слушать?? Перезалейте пожалуйста или ченить поправите есле возмоджно) Очень заинтригован)
pashu25 вне форума  
Старый 24.03.2011, 21:27   #4
Звезда эстрады
 Аватар для dj-leshech
7$
По умолчанию Ответ: [Electro/Progressive/Pop] Arthur Project - Tel-Aviv gRUves 2 [Presentation][2011]

хммм...ждёмс!
dj-leshech вне форума  
Старый 24.03.2011, 22:19   #5
- - Gold User - -
 Аватар для DjDen1
По умолчанию Ответ: [Electro/Progressive/Pop] Arthur Project - Tel-Aviv gRUves 2 [Presentation][2011]

интерессно..
__________________
Lost in music
DjDen1 вне форума  
Старый 25.03.2011, 14:04   #6
Меломан со стажем
 Аватар для bird777
По умолчанию Ответ: [Electro/Progressive/Pop] Arthur Project - Tel-Aviv gRUves 2 [Presentation][2011]

сорри, но фотка не плюс! на знаке символ очень сильно чтото не хорошо пахнущее напомниает... да и ХУМУС это удобрение! ...
bird777 вне форума  
Старый 25.03.2011, 18:04   #7
Звезда эстрады
 Аватар для technopunkz
По умолчанию Ответ: [Electro/Progressive/Pop] Arthur Project - Tel-Aviv gRUves 2 [Presentation][2011]

Цитата:
Сообщение от bird777 Посмотреть сообщение
сорри, но фотка не плюс! на знаке символ очень сильно чтото не хорошо пахнущее напомниает... да и ХУМУС это удобрение! ...

неа,в Израиле есть такой салат)
technopunkz вне форума  
Старый 26.03.2011, 03:47   #8
CEO & Developer
 Аватар для DJ_Andruha
По умолчанию Ответ: [Electro/Progressive/Pop] Arthur Project - Tel-Aviv gRUves 2 [Presentation][2011]

ребят, ссылка прямая, качайте и слушайте)
__________________
Следите за нашими новостями в социальных сетях:
DJ_Andruha вне форума  
Старый 26.03.2011, 04:38   #9
Звезда эстрады
 Аватар для DjLEX
По умолчанию Ответ: [Electro/Progressive/Pop] Arthur Project - Tel-Aviv gRUves 2 [Presentation][2011]

Где что прослушать пока не вьехал!
DjLEX вне форума  
Старый 26.03.2011, 18:54   #10
Парящий над мелодией
 Аватар для RomaSound
По умолчанию Ответ: [Electro/Progressive/Pop] Arthur Project - Tel-Aviv gRUves 2 [Presentation][2011]

Ссыль не работает!
RomaSound вне форума  
Старый 26.03.2011, 23:17   #11
Звезда эстрады
Аватар для boag69
По умолчанию Ответ: [Electro/Progressive/Pop] Arthur Project - Tel-Aviv gRUves 2 [Presentation][2011]

Цитата:
Сообщение от bird777 Посмотреть сообщение
сорри, но фотка не плюс! на знаке символ очень сильно чтото не хорошо пахнущее напомниает... да и ХУМУС это удобрение! ...

лол удобрение это ГУМУС

Хумос это блюдо на всем ближнем востоке (а не только Израиле)
Паста из вареной чечевицы
boag69 вне форума  
Старый 27.03.2011, 12:18   #12
Copyright © 2006. Dimer.
 Аватар для dimer
По умолчанию Ответ: [Electro/Progressive/Pop] Arthur Project - Tel-Aviv gRUves 2 [Presentation][2011]

TITLE "Tel Aviv gRUves2"
PERFORMER "Arthur Project"
REM ** Generated by CueMaster v1.6 **
REM Time : 78:45:00
REM Length: 4725 seconds
REM DiscID: 90127319
FILE "Arthur_Project_-_Tel-Aviv_gRUves_2_(no_ids).mp3" MP3
Цитата:
TRACK 01 AUDIO
TITLE "Sun Is Up (ScreeN Remix).mp3"
PERFORMER "Inna"
PREGAP 00:02:00
INDEX 01 00:00:00
TRACK 02 AUDIO
TITLE "Midnight Sun.mp3"
PERFORMER "Elena Gheorghe"
INDEX 01 02:45:03
TRACK 03 AUDIO
TITLE "Ole Ola On The Floor(Dj SheFF Booty).mp3"
PERFORMER "Jennifer Lopez Pitbull VS Christian Sims"
INDEX 01 0521
TRACK 04 AUDIO
TITLE "Astronomia Ochen Zavodit Menya(Arthur Project bootleg).mp3"
PERFORMER "Tony Igy Vs Julia Lasker "
INDEX 01 08:09:29
TRACK 05 AUDIO
TITLE "Hey Baby (X Mix Chartbusters).mp3"
PERFORMER "Pitbull ft T Pain"
INDEX 01 11:46:65
TRACK 06 AUDIO
TITLE "Mr.Saxobeat (Julyan Dubson & K-Liv Mix).mp3"
PERFORMER "Alexandra Stan"
INDEX 01 1465
TRACK 07 AUDIO
TITLE "Broken Angel Love(Arthur Project Mashup).mp3"
PERFORMER "Arash & Hellena Ft DJ Alegator Vs Chuckie"
INDEX 01 1828
TRACK 08 AUDIO
TITLE "Tonight (I'm Fuckin'You)(Chuckie Remix).mp3"
PERFORMER "Enrique Eglasias ft Ludacris"
INDEX 01 2115
TRACK 09 AUDIO
TITLE "Roman in Sandstorm(Arthur Project Bootleg).mp3"
PERFORMER "Vintaj Vs Darude ft Fast Foot"
INDEX 01 24:52:22
TRACK 10 AUDIO
TITLE "Sahi Balata (Ido Shoam Remix).mp3"
PERFORMER "Shoam & Gavriel Ft Dr. Chan&Mogli"
INDEX 01 27:44:59
TRACK 11 AUDIO
TITLE "Swede Dreams Technologic(DJ MTG Mashup).mp3"
PERFORMER "Avicii vs Daft Punk"
INDEX 01 3122
TRACK 12 AUDIO
TITLE ".Esli ti zahochesh (Private boot mix).mp3"
PERFORMER "Eli Wais & Lana B"
INDEX 01 34:44:59
TRACK 13 AUDIO
TITLE "Single Lady (Perez Brothers Remix).mp3"
PERFORMER "Dj Layla ft. Alissa"
INDEX 01 3826
TRACK 14 AUDIO
TITLE "Bromance (Chris Reece Remix).mp3"
PERFORMER "Tim Berg"
INDEX 01 4210
TRACK 15 AUDIO
TITLE "Stars In Your Eyes (Sidney Samson Remix).mp3"
PERFORMER "Her Majesty The Wolves"
INDEX 01 4468
TRACK 16 AUDIO
TITLE "Turn Around (5,4,3,2,1) (DJ Bam Bam Remix).mp3"
PERFORMER "Flo Rida"
INDEX 01 4728
TRACK 17 AUDIO
TITLE "Jinn(Private Booty).mp3"
PERFORMER "Arthur Project & Mike Tsoff ft Slim & Ido Shoam Vs Alex Gaudino"
INDEX 01 51:05:17
TRACK 18 AUDIO
TITLE "The Roof Is On Fire (GrooveshakerZ Remix).mp3"
PERFORMER "Whiteside & Jorge Martin S"
INDEX 01 55:08:65
TRACK 19 AUDIO
TITLE "I Just Died (Adamo & Pancza Remix).mp3"
PERFORMER "Jorg Schmid"
INDEX 01 56:57:68
TRACK 20 AUDIO
TITLE "Chudo 76(Arthur Project Booty).mp3"
PERFORMER "Tiesto & Hardwell Vs Nyusha"
INDEX 01 59:46:46
TRACK 21 AUDIO
TITLE "Time To Pump The Party (Rolvario MashUp).mp3"
PERFORMER "Black Eyed Peas ft. R3hab & Ferruccio Salvo"
INDEX 01 6345
TRACK 22 AUDIO
TITLE "Russkiy Plen.mp3"
PERFORMER "Arthur Project & Hatuna"
INDEX 01 6644
TRACK 23 AUDIO
TITLE "F.U.C.K Past Dreams(Arthur Project Mashup).mp3"
PERFORMER "Soockoo Vs Funkagenda"
INDEX 01 6953
TRACK 24 AUDIO
TITLE "The King (Vince Moogin Remix).mp3"
PERFORMER "Arcade"
INDEX 01 71:54:36
TRACK 25 AUDIO
TITLE "Squeeze Me (Fedde Le Grand Remix).mp3"
PERFORMER "Kraak & Smaak"
INDEX 01 73:49:10

__________________
dimer вне форума  
Старый 28.03.2011, 03:20   #13
Звезда эстрады
 Аватар для Казбек Асланбеков
По умолчанию Ответ: [Electro/Progressive/Pop] Arthur Project - Tel-Aviv gRUves 2 [Presentation][2011]

Так а когда можно будет послушать и получить в пользование?
Спасибо!!!
__________________
Девушка пришла к парню в гости, поучиться играть на пластинках,
а пришлось играть на кожаной флейте!
Казбек Асланбеков вне форума  
Старый 28.03.2011, 13:46   #14
Звезда эстрады
Аватар для boag69
По умолчанию Ответ: [Electro/Progressive/Pop] Arthur Project - Tel-Aviv gRUves 2 [Presentation][2011]

Цитата:
Сообщение от Казбек Асланбеков Посмотреть сообщение
Так а когда можно будет послушать и получить в пользование?
Спасибо!!!

Жми на ссылку "Arthur Project - Tel-Aviv gRUves 2" прямо под картинкой

PS Андрей, а может лучше тему оформить как все, с прослушкой а не ссылкой на файл? А то как-то по-израильски получается
Или это пожелание самих музыкантов?
boag69 вне форума  
Старый 28.03.2011, 19:40   #15
-=FreshRecords VIP =-
 Аватар для Yuri Rider
По умолчанию Ответ: [Electro/Progressive/Pop] Arthur Project - Tel-Aviv gRUves 2 [Presentation][2011]

Цитата:
This file is either removed due to copyright claim or is deleted by the uploader.

Вот такое сообщение выдает при нажатии на ссылку...
__________________
Yuri Rider на форуме  
Ответ




Часовой пояс GMT +4, время: 19:33.

www.webmoney.ru